<?xml version="1.0" standalone="no"?> <!DOCTYPE svg PUBLIC "-//W3C//DTD SVG 1.0//EN" "http://www.w3.org/TR/2001/REC-SVG-20010904/DTD/svg10.dtd" > <svg xmlns="http://www.w3.org/2000/svg" width="100%" height="100%">
<defs >
<font horiz-adv-x="413" ><font-face
    font-family="Luna Bar"
    units-per-em="1000"
    panose-1="0 0 4 0 0 0 0 0 0 0"
    ascent="1298"
    descent="-897"
    alphabetic="0" />
<missing-glyph horiz-adv-x="500" d="M63 0V800H438V0H63ZM125 63H375V738H125V63Z" />
<glyph unicode=" " glyph-name="space" horiz-adv-x="524" />
<glyph unicode="!" glyph-name="exclam" horiz-adv-x="204" d="M-2 794Q-2 769 39 610Q106 356 106 299Q106 276 129 276Q153 276 153 299Q153 362 85 622Q45 775 45 794Q45 817 21 817Q-2 817 -2 794ZM165 89L154 77Q153 76 151 74Q144 79 137 79Q76 79 67 56Q58
36 80 14L115 0Q142 1 186 49L194 59Q209 76 194 90Q178 104 165 89Z" />
<glyph unicode="&quot;" glyph-name="quotedbl" horiz-adv-x="252" d="M20 773Q9 753 31 739L27 742Q35 730 36 643Q37 572 45 554Q55 530 79 540Q102 550 92 574Q89 583 88 643Q87 713 81 740Q73 777 50 787Q31 794 20 773ZM129 748Q124 734 124 717Q124 675
168 581L177 560Q184 545 201 545Q215 545 222 556T225 581L214 603Q175 686 175 716Q175 724 177 729Q187 753 163 763Q139 772 129 748Z" />
<glyph unicode="#" glyph-name="numbersign" horiz-adv-x="1021" d="M442 719Q442 693 450 638Q494 644 537 650Q532 664 528 677Q521 698 521 710Q521 733 543 733Q561 733 572 701Q578 678 584 656Q730 673 824 673Q980 673 980 616Q980 579 908 561Q859 549
801 549Q744 549 744 575Q744 598 770 598Q775 598 785 597T800 596Q859 596 928 616Q891 624 831 624Q746 624 598 607Q620 530 631 479Q748 495 832 495Q920 495 957 482Q974 475 974 459Q974 448 966 441T943 436Q881 448 831 448Q751 448 639 432Q643 401 643
386Q643 337 617 337Q596 337 594 371Q593 398 593 425Q312 377 239 332Q231 328 223 328Q200 328 200 352Q200 388 436 443Q435 452 412 583Q281 564 171 543Q162 542 94 525Q38 511 22 511Q-2 511 -2 535Q-2 550 14 557Q55 577 404 631Q396 687 396 718Q396 779
425 779Q447 779 447 757Q447 750 445 737T442 719ZM551 602Q507 596 459 590L482 453Q535 464 584 472Q572 527 551 602Z" />
<glyph unicode="$" glyph-name="dollar" horiz-adv-x="358" d="M60 697Q60 676 38 676Q16 676 16 714Q16 737 25 767Q37 805 55 805Q64 805 74 795Q93 776 167 442Q193 446 218 446Q257 446 292 434Q341 417 341 386Q341 365 319 365Q309 365 281 384T219 403Q198
403 177 399L185 357Q279 349 279 298Q279 266 209 236Q234 100 234 43Q234 0 211 0Q193 0 190 17Q191 9 191 47Q191 96 169 219Q163 216 156 216Q135 216 135 237Q135 252 160 263L150 315Q132 315 99 314T49 312Q-1 312 -1 342Q-1 365 50 396Q88 418 125 430Q92
576 60 697ZM195 312L201 280Q213 285 234 298Q224 308 195 312ZM70 356Q94 358 140 359L134 387Q101 375 70 356Z" />
<glyph unicode="%" glyph-name="percent" horiz-adv-x="570" d="M464 757Q464 811 420 811Q388 811 268 749Q108 667 66 667Q47 667 47 681Q47 701 114 726Q172 747 197 747T222 773Q222 798 197 798Q157 798 94 773Q17 742 0 702Q-4 691 -4 680Q-4 656 15 637T66
618Q123 618 291 704Q391 756 414 759Q421 721 284 466Q200 308 167 232Q122 130 122 76Q122 49 136 24Q153 -4 178 -4Q210 -4 210 35Q210 47 205 62T185 78Q172 78 172 76Q172 148 329 442Q402 578 428 636Q464 716 464 757ZM521 171Q500 174 492 152Q489 143
477 131T455 119Q445 119 445 137Q445 155 468 167Q488 178 507 178Q532 178 532 203Q532 228 507 228Q463 228 429 202T395 137Q395 121 401 105Q416 67 451 67Q479 67 510 94T542 148Q542 167 521 171Z" />
<glyph unicode="&amp;" glyph-name="ampersand" horiz-adv-x="242" d="M34 785Q28 771 35 754T58 739Q60 735 65 725Q72 705 92 712Q112 719 105 739Q83 799 58 800Q41 800 34 785ZM0 405Q-8 386 7 371T50 356Q64 356 98 362Q113 365 122 366L118 357L107 317Q107
315 107 312Q107 302 123 297Q142 292 150 317L157 339Q166 359 166 371Q166 387 155 398T125 410Q113 410 94 406Q68 401 61 400Q91 413 139 425T208 437T230 459Q230 480 209 480Q173 480 100 459Q12 433 0 405ZM68 100Q48 93 55 73Q81 1 111 0Q129 -1 137 17Q147
39 128 58Q134 51 134 43Q134 34 128 28Q113 12 98 28Q94 31 100 37Q109 48 119 41Q112 51 95 87Q88 107 68 100Z" />
<glyph unicode="&apos;" glyph-name="quotesingle" horiz-adv-x="209" d="M67 600Q9 606 9 646Q9 697 105 766Q140 792 154 792Q188 792 188 760Q188 748 169 734Q156 724 142 714L109 690Q111 682 111 672Q111 645 98 622T67 600Z" />
<glyph unicode="(" glyph-name="parenleft" horiz-adv-x="247" d="M160 3Q0 30 0 272Q0 432 79 608Q139 742 189 792Q197 800 208 800Q220 800 228 792Q247 773 228 754Q184 711 128 587Q54 420 54 272Q54 243 57 216Q67 119 112 81Q146 54 208 54Q236 54 236
27Q236 -1 196 -1Q183 -1 160 3Z" />
<glyph unicode=")" glyph-name="parenright" horiz-adv-x="407" d="M149 51Q164 66 192 96Q245 157 284 236Q327 327 327 397Q327 472 240 562Q191 612 79 697Q-8 763 -8 778Q-8 808 22 808Q37 808 70 783Q92 765 114 747Q246 644 290 597Q387 494 387 397Q387
306 326 187Q267 73 192 9Q182 0 170 0Q141 0 141 29Q141 41 149 51Z" />
<glyph unicode="*" glyph-name="asterisk" horiz-adv-x="381" d="M296 626Q274 626 222 596Q211 644 200 691Q187 750 187 787T171 824Q152 824 152 786Q152 745 165 682Q177 630 189 578Q89 629 35 677Q29 682 22 682Q4 682 4 664Q4 635 155 555Q117 530 88 509Q88
527 70 527Q56 527 53 510T49 477Q23 453 23 442Q23 416 48 416Q71 416 81 458Q182 541 198 534Q202 510 208 462Q204 465 199 465Q183 465 183 436Q183 406 207 406Q245 406 245 453Q245 475 238 516Q282 496 293 496Q325 496 325 535Q325 552 308 552Q289 552
289 534Q277 536 230 558Q229 561 257 575T294 590Q299 590 316 586T342 581Q361 581 361 599Q361 626 296 626Z" />
<glyph unicode="+" glyph-name="plus" horiz-adv-x="693" d="M635 286Q621 288 602 288Q506 288 291 249Q312 112 347 44Q351 38 351 31Q351 5 322 5Q307 5 300 19Q261 94 238 239Q78 207 45 193Q39 191 34 191Q8 191 8 219Q8 236 24 243Q62 259 230 292Q219 376
217 388Q205 456 192 470Q191 475 191 479Q191 508 218 508Q229 508 236 499Q255 472 268 404Q271 392 283 302Q501 342 604 342Q626 342 642 340Q665 337 665 314Q665 282 635 286Z" />
<glyph unicode="," glyph-name="comma" horiz-adv-x="130" d="M46 -59Q22 -59 22 -28Q22 -17 36 0T50 33Q50 42 44 52T37 72Q37 102 61 102Q76 102 88 74Q99 51 99 32Q99 8 84 -23Q67 -59 46 -59Z" />
<glyph unicode="-" glyph-name="hyphen" horiz-adv-x="528" d="M354 371Q334 371 282 349Q210 320 208 319Q83 278 48 278Q3 278 3 312Q3 345 49 345Q73 345 189 383Q230 400 272 416Q327 438 355 438Q394 438 460 416Q483 408 483 384Q483 370 474 360T450 350Q439
350 406 360T354 371Z" />
<glyph unicode="." glyph-name="period" horiz-adv-x="169" d="M16 53Q16 31 31 16T67 1Q79 1 99 22T120 55Q120 72 100 86T62 101Q42 101 29 87T16 53Z" />
<glyph unicode="/" glyph-name="slash" horiz-adv-x="492" d="M49 16Q41 -8 17 0Q-1 6 -1 24Q-1 28 0 32Q33 130 222 458Q401 769 433 801Q450 818 468 801Q487 783 469 764Q440 732 267 433Q81 112 49 16Z" />
<glyph unicode="0" glyph-name="zero" horiz-adv-x="1194" d="M1080 295Q997 378 805 446Q632 507 529 507Q506 507 494 503Q317 440 194 360Q-2 231 -2 92Q-2 -28 223 -65Q305 -78 414 -78Q657 -78 867 -22Q1099 41 1131 136Q1137 156 1137 177Q1137 238 1080
295ZM1072 156Q1050 88 839 35Q635 -17 414 -17Q313 -17 233 -4Q60 24 60 92Q60 178 217 291Q358 393 513 445Q519 447 531 447Q613 447 773 392Q959 329 1036 252Q1076 212 1076 177Q1076 167 1072 156Z" />
<glyph unicode="1" glyph-name="one" horiz-adv-x="1463" d="M1377 77Q1386 81 1394 81Q1422 81 1422 54Q1422 44 1415 35Q1390 10 1134 -15Q968 -29 802 -43Q719 -52 154 -115Q134 -119 114 -122Q80 -127 57 -127Q0 -127 0 -97Q0 -73 63 -49Q118 -29 149 -29Q157
-29 168 -37T179 -54Q179 -57 176 -59Q301 -39 479 -20Q630 -4 782 11Q865 21 1030 35Q965 195 957 334Q909 281 843 227Q753 153 712 153Q696 153 686 162T676 184Q676 204 702 209Q744 217 840 302Q926 378 959 424Q973 554 1023 554Q1056 554 1056 519Q1056
468 1015 405Q1013 383 1013 369Q1013 236 1085 50Q1093 47 1121 47Q1180 47 1264 57Q1355 67 1377 77Z" />
<glyph unicode="2" glyph-name="two" horiz-adv-x="618" d="M56 63Q59 49 95 49Q107 49 126 50T149 52Q244 52 502 74Q538 77 536 77Q570 77 570 53Q570 31 548 25Q546 25 507 21Q236 -2 100 -2Q9 -2 1 56Q-8 126 131 224Q200 272 389 374Q526 448 519 465Q513
477 489 477Q423 477 264 399Q111 324 33 258Q24 250 13 250Q-12 250 -12 276Q-12 286 -4 295Q40 350 185 424Q336 501 448 521Q581 546 581 471Q581 432 439 348Q310 273 180 198Q45 111 56 63Z" />
<glyph unicode="3" glyph-name="three" horiz-adv-x="790" d="M177 -213Q58 -213 -44 -196Q-210 -169 -210 -106Q-210 -25 62 12Q231 35 410 35Q495 35 518 33Q602 24 602 -11Q602 -61 541 -61Q512 -61 481 -53Q437 -43 437 -25Q437 -20 440 -14Q413 -11 357 -11Q197
-11 47 -34Q-136 -62 -144 -108Q-149 -139 -2 -154Q90 -164 180 -164Q353 -164 493 -127Q706 -72 706 48Q706 149 605 200Q529 239 390 251Q290 255 189 259Q130 262 130 289Q130 289 130 290Q130 299 140 310Q154 326 233 354Q285 372 338 390Q295 392 214 392Q210
392 173 390T110 387Q24 387 24 415Q24 445 102 445Q119 445 154 444T208 442Q211 442 238 443Q264 443 283 443Q428 443 428 400Q428 370 352 341Q302 324 251 308Q455 305 569 267Q755 206 755 48Q755 -102 528 -169Q377 -213 177 -213Z" />
<glyph unicode="4" glyph-name="four" horiz-adv-x="630" d="M529 140Q541 57 541 0Q541 -35 536 -62Q533 -82 513 -82Q484 -82 489 -54Q492 -30 492 2Q492 59 479 148Q285 174 141 180Q87 147 58 147Q29 147 11 174Q4 184 4 193Q4 230 129 229Q181 261 233 294Q292
330 339 354Q335 360 335 366Q335 386 374 400Q403 411 427 412Q403 519 379 626Q352 759 352 840Q352 864 377 864Q401 864 401 840Q401 767 424 650Q425 645 465 462T521 189Q657 168 698 155Q714 150 714 133Q714 108 691 108Q667 108 611 121Q543 138 529 140ZM441
346L439 345Q322 295 214 225Q327 218 471 197Q459 262 441 346Z" />
<glyph unicode="5" glyph-name="five" horiz-adv-x="853" d="M187 693Q170 682 136 588Q118 537 100 485Q97 476 97 469Q97 444 124 444Q138 444 153 453Q185 473 213 485Q264 507 320 513Q358 518 399 518Q600 518 706 431Q776 374 783 284Q801 66 487 -29Q340
-73 181 -73Q103 -73 46 -63Q-7 -52 -15 -38Q-18 -29 -18 -22Q-18 11 27 38Q136 105 376 105Q429 105 474 100H473Q473 77 507 57T570 36Q588 36 601 49T615 82Q615 118 578 135Q521 161 379 161Q256 161 148 139Q24 113 -30 66Q-74 28 -74 -21Q-74 -37 -69 -54Q-47
-130 175 -130Q284 -130 390 -110Q606 -70 723 27T840 262Q840 393 742 475Q620 574 401 574Q356 574 314 569Q242 561 176 530Q194 584 220 648Q260 675 357 703Q446 729 477 729Q505 729 505 758Q505 786 477 786Q439 786 343 758Q236 726 187 693Z" />
<glyph unicode="6" glyph-name="six" horiz-adv-x="1121" d="M613 -66Q320 -66 164 69Q-2 213 -2 502Q-2 579 16 679Q41 817 83 817Q111 817 111 791Q111 780 105 767Q56 660 56 499Q56 174 293 55Q365 195 516 297Q674 405 825 405Q909 405 992 367Q1096 320
1096 245Q1096 150 974 45Q844 -66 613 -66ZM827 346Q565 346 347 34Q472 -7 613 -7Q822 -7 936 91Q970 119 1000 162Q1035 214 1035 247Q1035 294 951 323Q886 346 827 346Z" />
<glyph unicode="7" glyph-name="seven" horiz-adv-x="398" d="M-326 670Q-347 664 -347 643Q-347 614 -319 614Q-315 614 -310 615Q-265 628 -111 643Q48 657 162 657Q260 657 280 645Q284 638 284 619Q284 585 266 475Q240 320 240 248Q240 200 257 139Q280 57
317 57Q353 57 353 107Q353 137 343 194Q339 216 317 216Q308 216 300 211Q298 238 298 248Q298 315 322 466Q341 579 341 618Q341 666 321 686Q292 715 144 715Q24 715 -144 697Q-289 681 -326 670Z" />
<glyph unicode="8" glyph-name="eight" horiz-adv-x="1130" d="M1071 227Q1017 305 826 351Q710 380 572 391Q515 395 457 395Q583 444 595 523Q596 532 596 540Q596 585 558 604Q537 615 505 615Q431 615 317 566Q321 573 321 581Q321 606 293 606Q215 606 144
566Q57 517 57 436Q57 355 215 353Q148 311 88 249Q22 181 10 132Q6 116 6 101Q6 -12 202 -66Q329 -101 495 -101Q710 -101 872 -44Q1053 19 1086 131Q1091 147 1091 163Q1091 197 1071 227ZM191 411Q153 414 131 423Q115 430 115 436Q115 485 173 517Q219 542
276 547Q190 505 161 476Q152 467 152 456Q152 444 161 435T182 426Q193 426 202 435Q234 468 337 512Q446 558 504 558Q543 558 543 537Q543 501 449 458Q345 410 228 410Q209 410 191 411ZM217 -10Q139 20 119 32Q64 63 64 102Q64 150 154 234Q238 313 290 327Q368
338 459 338Q514 338 568 333Q752 319 871 285Q1001 247 1023 195Q1028 182 1028 170Q1028 85 812 22Q616 -34 404 -34Q280 -34 217 -10Z" />
<glyph unicode="9" glyph-name="nine" horiz-adv-x="719" d="M231 145Q231 165 241 187Q253 215 270 215Q298 215 298 189Q298 176 292 159Q422 213 485 300Q551 391 551 528Q551 543 529 590T495 638Q487 638 487 613T459 584Q451 583 303 583Q-574 583 -574
718Q-574 781 -383 806Q-277 820 -145 820Q107 820 301 773Q607 699 607 528Q607 228 318 110Q296 100 276 100Q231 100 231 145ZM-120 764Q-232 764 -355 754Q-523 740 -510 716Q-467 636 166 636Q160 636 459 639Q496 640 496 645Q496 651 461 663T391 688Q198
764 -120 764Z" />
<glyph unicode=":" glyph-name="colon" horiz-adv-x="153" d="M107 251Q107 233 94 219T63 205Q45 205 31 218T17 251Q17 321 58 321Q107 321 107 251ZM16 53Q16 31 31 16T67 1Q79 1 99 22T120 55Q120 72 100 86T62 101Q42 101 29 87T16 53Z" />
<glyph unicode=";" glyph-name="semicolon" horiz-adv-x="180" d="M108 246Q108 218 81 218Q53 218 53 246Q53 289 78 289Q108 289 108 246ZM20 -67Q20 -53 67 -21T114 40Q114 68 77 87T39 119Q39 144 63 144Q96 144 129 109T162 41Q162 -23 57 -87Q51 -91 44
-91Q20 -91 20 -67Z" />
<glyph unicode="&lt;" glyph-name="less" horiz-adv-x="495" d="M393 407Q372 374 263 287Q132 184 45 157Q-6 142 -3 115Q-1 97 18 90Q32 86 85 81Q326 61 422 -4Q434 -13 446 -13Q456 -13 464 -7Q480 6 473 27Q461 65 414 65Q416 65 407 61Q298 115 118 131Q218
180 332 276Q443 368 443 396Q443 414 423 420Q405 425 393 407Z" />
<glyph unicode="=" glyph-name="equal" horiz-adv-x="528" d="M354 373Q333 373 282 353Q210 324 208 323Q83 284 48 284Q3 284 3 316Q3 348 49 348Q73 348 189 385Q230 401 272 417Q326 438 355 438Q394 438 460 416Q483 409 483 386Q483 372 474 363T450 353Q439
353 406 363T354 373ZM354 188Q333 188 282 167Q210 138 208 138Q83 98 48 98Q3 98 3 131Q3 163 49 163Q73 163 189 200Q230 216 272 232Q326 253 355 253Q394 253 460 231Q483 223 483 200Q483 187 474 178T450 168Q439 168 406 178T354 188Z" />
<glyph unicode="&gt;" glyph-name="greater" horiz-adv-x="493" d="M30 352Q10 350 10 331Q10 309 32 285Q57 256 96 244Q118 237 254 233Q385 229 425 223Q402 203 329 148Q273 106 195 39Q188 34 178 25Q152 -1 152 -21Q152 -35 164 -46T192 -51Q220 -40 231
12Q267 44 357 112Q439 174 462 195T485 232Q485 258 441 266Q402 274 255 278Q190 280 109 287Q85 295 68 311Q56 324 55 332Q51 354 30 352Z" />
<glyph unicode="?" glyph-name="question" horiz-adv-x="1029" d="M152 647Q43 607 6 583Q-15 568 -16 552Q-17 535 0 525T55 515Q90 515 246 538L335 552Q363 556 359 579Q356 603 335 600L237 586Q181 576 76 564Q201 621 411 679Q663 750 808 751Q832 752 866
747Q917 739 916 725Q910 687 666 546Q530 468 485 434Q421 386 421 351Q421 328 437 316Q448 309 463 309Q477 309 512 319L526 323Q536 326 543 335T549 354Q543 376 525 372L496 365Q489 363 474 359Q495 392 690 504Q819 578 847 598Q964 677 964 726Q964 748
948 764Q912 800 811 800Q664 800 395 724Q251 684 152 647ZM428 88Q410 70 410 42Q410 7 438 0Q460 -6 485 18Q500 33 484 51Q477 59 464 57Q469 65 469 71Q469 81 462 88Q445 105 428 88Z" />
<glyph unicode="@" glyph-name="at" horiz-adv-x="1047" d="M542 800Q347 800 205 709Q44 606 5 416Q0 392 0 368Q0 233 148 121Q270 29 411 0Q450 -8 481 -8Q568 -8 579 49Q586 79 555 96Q536 105 501 105Q467 105 444 94Q418 81 421 57Q285 86 173 174Q36 282
62 404Q97 579 245 668Q369 742 540 742Q669 742 786 694Q936 633 939 525Q943 392 764 297Q731 280 647 255Q543 226 477 226Q384 226 395 288Q403 339 419 339Q428 339 437 322T446 291Q425 282 426 264Q427 237 452 237Q501 237 504 286Q506 320 481 357T420
399Q355 406 337 297Q336 287 336 278Q336 228 378 198T500 168Q645 168 791 246Q1002 359 997 526Q993 662 828 739Q696 800 542 800Z" />
<glyph unicode="A" glyph-name="A" horiz-adv-x="1166" d="M1168 -41Q1057 -41 870 0Q653 47 573 55Q565 -10 565 -10Q555 -54 531 -54Q500 -54 500 5Q500 20 504 54Q430 51 283 37Q225 26 166 15Q96 3 48 3Q11 3 11 27Q11 39 27 51T137 74Q198 81 259 87Q295
92 515 137Q525 181 542 270Q550 326 550 540Q550 577 536 636T521 722Q521 748 547 748Q572 748 583 704Q589 673 595 641Q600 620 626 569Q634 580 648 580Q674 580 674 556Q674 545 662 508Q752 364 916 228L944 235Q1079 271 1158 307Q1164 310 1171 310Q1196
310 1196 285Q1196 272 1183 261Q1153 238 967 188Q1040 140 1112 92Q1226 15 1226 -6Q1226 -41 1168 -41ZM642 441Q628 394 614 347Q598 292 592 252Q589 218 584 151Q731 182 852 212Q724 323 642 441ZM903 171Q772 137 603 101Q657 98 833 64Q931 44 1128 14Q1006
88 903 171Z" />
<glyph unicode="B" glyph-name="B" horiz-adv-x="1864" d="M426 -195Q407 -195 395 -186T382 -164Q382 -151 395 -141Q418 -122 575 -69T762 -15Q787 -15 787 -43Q787 -62 757 -72Q735 -78 712 -84Q678 -94 643 -104Q589 -121 591 -129Q884 -89 1260 87Q1385 145
1545 239Q1780 376 1780 425Q1780 481 1609 481Q1464 481 1221 442Q962 400 847 352Q872 238 891 162Q902 183 918 183Q938 183 951 148Q960 121 960 95Q960 63 950 37Q937 5 916 5Q901 5 884 21Q860 43 797 332Q545 232 473 232Q429 232 429 264Q429 278 442 293Q483
336 778 419Q752 543 723 691Q541 637 233 564Q-137 476 -258 444Q-274 438 -289 433Q-314 425 -329 425Q-356 425 -356 451Q-356 471 -323 483Q-298 489 -273 495Q86 595 218 629Q494 701 713 743Q699 816 699 819Q699 825 706 835T722 845Q748 845 765 753Q1014
798 1167 798Q1246 798 1305 784Q1401 761 1401 706Q1401 637 1180 511Q1390 545 1543 545Q1651 545 1730 528Q1864 501 1864 433Q1864 327 1570 163Q1380 57 1172 -23Q986 -96 812 -139Q589 -195 426 -195ZM1171 739Q992 739 776 700Q803 558 830 433Q1210 535
1317 665Q1330 681 1330 694Q1330 739 1171 739Z" />
<glyph unicode="C" glyph-name="C" horiz-adv-x="1364" d="M1763 -96Q1747 -96 1739 -80Q1252 -194 717 -194Q461 -194 297 -157Q9 -92 9 78Q9 170 148 298Q339 474 647 621Q983 782 1212 782Q1347 782 1431 730Q1532 667 1532 541Q1532 484 1506 417Q1474 332
1427 332Q1361 332 1361 439Q1361 485 1391 485Q1420 485 1420 434Q1420 401 1427 390Q1447 413 1460 463Q1473 508 1473 542Q1473 642 1387 688Q1321 723 1211 723Q992 723 668 567Q371 423 188 255Q68 144 68 81Q68 -55 343 -107Q494 -135 720 -135Q984 -135
1264 -103Q1570 -68 1801 -4Q1844 8 1862 8Q1901 8 1901 -26Q1901 -56 1845 -78Q1799 -96 1763 -96Z" />
<glyph unicode="D" glyph-name="D" horiz-adv-x="1528" d="M418 -62Q356 -62 309 220Q273 441 273 570Q273 583 282 592T305 602Q318 602 327 593T337 570Q337 432 364 272Q394 87 445 -12Q450 -21 450 -31Q450 -62 418 -62ZM-219 -281Q-324 -281 -324 -234Q-324
-191 -237 -168Q-176 -152 -114 -152Q-42 -152 -42 -184Q-42 -196 -56 -213Q428 -191 812 -102Q1445 45 1445 321Q1445 418 1360 498Q1125 717 385 815Q-108 880 -690 880Q-987 880 -1328 859Q-1430 853 -1430 904Q-1430 934 -1391 954Q-1359 970 -1327 970Q-1314
970 -1305 961T-1296 939Q-1296 931 -1300 925Q-1002 943 -691 943Q22 943 567 854Q1509 699 1509 321Q1509 91 1146 -61Q864 -179 398 -238Q60 -281 -219 -281Z" />
<glyph unicode="E" glyph-name="E" horiz-adv-x="833" d="M1480 -137Q1468 -137 1456 -123Q1439 -104 1436 -101Q1412 -85 1302 -71Q1206 -57 1155 -57Q1053 -57 870 -99Q842 -106 586 -171Q326 -238 276 -249Q78 -293 -36 -293Q-96 -293 -142 -275Q-203 -250
-203 -202Q-203 -187 -197 -171Q-162 -71 205 94Q452 199 700 304Q622 301 387 266Q308 254 229 242Q136 230 70 230Q15 230 7 232Q-17 239 -20 275Q-22 323 194 436Q255 468 450 558Q899 766 984 766Q1014 766 1014 736Q1014 706 984 706Q911 706 527 527Q163
357 65 290Q130 289 222 302Q300 314 378 326Q462 339 547 351Q645 365 716 365Q748 365 776 355Q811 343 811 322Q811 308 792 290Q764 264 648 214Q571 182 494 150Q249 49 138 -4Q-142 -137 -142 -197Q-142 -234 -41 -234Q68 -234 265 -190Q316 -179 571 -113Q832
-46 862 -39Q1047 3 1156 3Q1221 3 1316 -11Q1425 -27 1463 -47Q1478 -56 1494 -74T1510 -107Q1510 -137 1480 -137Z" />
<glyph unicode="F" glyph-name="F" horiz-adv-x="737" d="M900 560Q863 573 811 573Q710 573 531 517Q503 716 503 740Q503 769 473 769Q444 769 444 740Q444 708 474 499Q437 487 391 475Q362 474 362 445Q362 416 391 416Q408 416 482 439Q532 104 559 16Q566
-5 586 -5Q617 -5 617 24Q617 28 615 33Q588 120 539 458Q718 514 811 514Q852 514 880 504Q886 502 891 502Q919 502 919 533Q919 553 900 560ZM1329 952Q1301 985 1162 985Q835 985 -362 776L-387 771Q-382 805 -415 805Q-475 805 -577 737Q-590 728 -590 713Q-590
683 -561 683Q-525 683 -456 696Q-404 707 -352 718Q853 928 1173 928Q1196 928 1214 927Q1186 916 1186 899Q1186 886 1195 877T1216 868Q1223 868 1228 870Q1257 883 1298 884Q1334 885 1343 905Q1346 911 1346 918Q1346 933 1329 952Z" />
<glyph unicode="G" glyph-name="G" horiz-adv-x="1504" d="M-5 398Q-147 276 -147 176Q-147 61 -5 18Q66 -4 175 -4Q540 -4 1172 204Q1233 89 1257 -24Q1264 -54 1294 -47Q1317 -42 1317 -18Q1317 15 1284 104Q1256 177 1232 224Q1568 339 1615 385Q1632 402 1632
422Q1632 431 1629 439Q1614 473 1528 486Q1438 500 1216 500Q1151 500 987 498Q939 522 904 522Q861 522 835 495Q820 480 828 461Q837 439 891 436Q878 437 965 437Q1056 390 1140 257Q524 56 180 56Q79 56 13 76Q-86 106 -86 176Q-86 248 35 352Q187 483 474
623Q717 741 975 829Q1215 911 1297 911Q1308 911 1315 908L1352 896Q1376 889 1407 875Q1415 867 1428 867Q1458 867 1458 897Q1458 909 1449 918Q1435 933 1370 954L1336 965Q1323 970 1302 970Q1196 970 939 881Q679 791 426 666Q142 525 -5 398ZM1557 417Q1475
370 1203 278Q1146 373 1072 438Q1481 444 1557 417Z" />
<glyph unicode="H" glyph-name="H" horiz-adv-x="986" d="M994 290Q960 277 814 257Q830 150 845 36Q849 3 816 3Q790 3 787 29Q772 144 756 250Q609 232 395 211L394 -24Q394 -53 365 -53Q336 -53 336 -24V205Q-53 167 -104 167Q-133 167 -133 197Q-133 226 -104
226Q-52 226 336 263Q336 783 300 819Q291 828 291 839Q291 851 300 860T321 869Q333 869 342 860Q375 827 386 674Q395 556 395 269Q606 290 747 308Q689 658 651 696Q642 705 642 716Q642 727 651 736T672 746Q684 746 692 737Q744 685 805 315Q944 333 974 344Q980
346 985 346Q1013 346 1013 316Q1013 297 994 290Z" />
<glyph unicode="I" glyph-name="I" horiz-adv-x="195" d="M-20 819Q-20 807 -11 798Q27 760 50 504Q71 273 71 -25Q71 -54 101 -54Q130 -54 130 -25Q130 233 115 440Q90 780 30 839Q21 848 9 848Q-20 848 -20 819Z" />
<glyph unicode="J" glyph-name="J" horiz-adv-x="1063" d="M290 857Q290 808 328 743Q360 690 407 643Q424 625 537 555Q728 436 824 362Q996 227 987 153Q976 68 780 0T339 -70Q152 -72 24 -30Q-128 19 -142 117Q-138 149 -122 173Q-85 232 1 243Q27 247 24 273Q20
299 -6 296Q-107 282 -158 214Q-202 156 -195 110Q-179 -2 -37 -64T340 -123Q602 -120 805 -49Q1025 29 1040 147Q1051 239 902 367Q800 455 565 600Q511 634 444 680Q399 725 371 774T343 857Q343 884 316 884Q290 884 290 857Z" />
<glyph unicode="K" glyph-name="K" horiz-adv-x="493" d="M184 723Q184 646 196 525Q212 351 214 328Q517 474 550 570Q557 592 576 592Q604 592 604 565Q604 500 444 395Q342 329 218 270Q221 216 221 172Q290 146 329 123Q419 70 549 -27Q575 -45 623 -83Q634
-92 634 -104Q634 -131 606 -131Q598 -131 590 -126Q501 -60 412 5Q306 81 220 114Q216 -7 182 -7Q153 -7 153 19Q153 23 155 28Q165 66 166 134Q120 149 75 164Q7 192 7 216Q7 236 30 247Q74 265 160 303Q155 384 140 545Q124 719 124 761Q124 821 155 825Q180
829 184 797Q184 797 184 723ZM163 245Q130 230 96 216Q109 211 165 192Q165 216 163 245Z" />
<glyph unicode="L" glyph-name="L" horiz-adv-x="327" d="M508 860Q481 859 482 832Q484 751 398 617Q347 538 217 377Q102 234 61 171Q-6 69 -6 6Q-6 -120 200 -120Q303 -120 506 -92T813 -63Q877 -63 926 -71Q952 -75 957 -49Q961 -22 934 -18Q881 -10 813 -10Q708
-10 474 -40Q278 -66 200 -66Q48 -66 48 7Q48 56 114 154Q154 213 259 343Q398 516 451 599Q539 739 535 834Q535 861 508 860Z" />
<glyph unicode="M" glyph-name="M" horiz-adv-x="729" d="M120 528Q125 530 131 530Q161 530 161 500Q161 493 147 441Q132 379 131 377Q151 280 184 204Q235 84 294 84Q321 84 352 122Q447 241 503 585Q516 664 516 674Q516 691 513 726T509 778Q509 863 545
863Q585 863 585 787Q585 769 581 735T577 683Q577 676 586 608Q602 476 614 411Q633 300 662 218Q729 32 729 -111Q729 -141 699 -141Q669 -141 669 -111Q669 22 606 198Q580 270 544 479Q449 24 295 24Q179 24 107 240Q87 0 70 -18Q59 -29 46 -29Q12 -29 12 17Q12
70 27 149Q49 268 51 280Q60 348 60 440Q60 437 55 477Q47 533 47 573Q47 628 81 628Q108 628 116 588Q120 573 120 528Z" />
<glyph unicode="N" glyph-name="N" horiz-adv-x="1076" d="M15 853Q15 827 38 774Q39 744 39 711Q39 618 26 247Q20 38 20 22Q19 -3 46 -4Q73 -5 74 23L93 669Q127 611 155 568Q283 377 434 229Q697 -29 901 -8Q976 -1 1017 112Q1054 218 1054 382Q1054 529 1024
653Q991 788 935 844Q927 852 916 852Q905 852 897 844Q878 825 897 806Q943 759 972 634Q1000 515 1000 379Q1000 227 966 131Q937 50 895 45Q883 44 871 44Q695 44 459 280Q339 400 229 556Q138 686 92 784Q88 867 73 883Q64 892 51 892Q15 892 15 853Z" />
<glyph unicode="O" glyph-name="O" horiz-adv-x="1548" d="M546 -74Q360 -74 230 -24Q55 44 15 193Q10 214 10 236Q10 308 67 393Q161 533 375 684Q613 851 766 851Q856 851 938 804Q952 795 952 780Q952 754 926 754Q919 754 880 771Q838 789 825 792Q793 800
762 800Q687 800 588 748Q454 679 327 581Q180 467 111 364Q63 292 63 236Q63 221 67 207Q101 77 261 20Q377 -21 543 -21Q772 -21 1012 54Q1182 107 1311 188Q1497 305 1497 431Q1497 637 1266 762Q1074 866 849 866Q786 866 711 846Q664 834 600 809Q548 790
541 790Q514 790 514 816Q514 829 526 838Q582 879 681 900Q763 918 849 918Q1002 918 1155 867Q1328 809 1430 707Q1550 588 1550 431Q1550 283 1360 155Q1226 65 1038 6Q786 -74 546 -74Z" />
<glyph unicode="P" glyph-name="P" horiz-adv-x="753" d="M1178 745Q1012 802 685 831Q401 857 67 857Q-203 857 -403 840Q-606 824 -645 797Q-667 781 -667 760Q-667 738 -643 727T-576 715Q-533 715 -515 728Q-504 735 -504 747Q-504 773 -530 774Q-323 804
83 804Q840 804 1161 695Q1197 683 1239 660Q1306 624 1306 599Q1306 552 1080 513Q996 499 801 477Q695 465 639 458Q639 531 643 545Q644 549 644 554Q644 583 618 583Q611 583 605 579Q585 565 585 449Q478 431 471 394Q470 387 470 381Q470 339 511 339Q538
339 587 367Q591 250 606 97Q620 -34 627 -70Q631 -91 652 -91Q665 -91 673 -82T679 -59Q649 85 640 404Q697 412 807 425Q1060 453 1166 476Q1314 508 1347 559Q1360 578 1360 598Q1360 646 1288 693Q1239 725 1178 745Z" />
<glyph unicode="Q" glyph-name="Q" horiz-adv-x="1449" d="M1445 408Q1445 588 1293 671Q1181 731 991 731Q834 731 659 692Q509 658 460 626Q381 574 381 494Q381 486 382 461L384 426Q386 397 413 399Q440 400 438 426L436 466Q435 488 435 495Q435 545 490
581Q533 609 675 640Q843 678 991 678Q1166 678 1268 623Q1391 556 1391 408Q1391 218 1099 73Q1039 148 1036 174T1007 199Q982 197 982 173Q982 134 1048 50Q886 -21 696 -55Q556 -80 430 -80Q274 -80 170 -43T42 61Q33 84 33 111Q33 206 129 342Q257 525 475
690Q679 843 767 843Q794 843 794 870Q794 897 767 897Q656 897 435 727T84 373Q-21 223 -21 112Q-21 75 -9 43Q23 -47 148 -93Q259 -133 428 -133Q592 -133 765 -97T1086 6Q1149 -61 1180 -61Q1207 -61 1207 -33Q1207 -21 1179 0Q1138 30 1137 31Q1445 189 1445
408Z" />
<glyph unicode="R" glyph-name="R" horiz-adv-x="362" d="M810 -15Q792 -17 771 -17Q650 -17 442 37Q261 84 105 146Q104 202 102 274Q141 288 205 309Q468 395 572 445Q715 515 715 584Q715 659 601 718Q314 863 -682 863Q-955 863 -1203 851Q-1421 841 -1444
832Q-1483 817 -1479 789Q-1477 773 -1463 764Q-1437 748 -1371 743Q-1342 741 -1341 771Q-1341 781 -1348 789Q-1095 808 -692 808Q-160 808 183 765Q626 709 659 590Q678 521 188 361L100 332Q96 431 90 602L85 727Q85 738 77 747T57 756Q29 755 30 730L34 600Q38
509 45 314Q-37 284 -69 265Q-104 244 -104 220Q-104 174 50 108Q52 -1 48 -45Q46 -73 74 -75Q102 -77 104 -49Q107 -9 106 85Q267 22 459 -24Q662 -72 779 -72Q799 -72 816 -71Q843 -68 841 -40Q838 -13 810 -15ZM-38 217Q-18 231 47 255L49 169Q-18 199 -38 217Z"
/>
<glyph unicode="S" glyph-name="S" horiz-adv-x="1505" d="M9 500Q6 487 6 474Q6 434 33 401Q104 311 357 273Q520 248 728 248Q1036 248 1242 200T1448 79Q1448 27 1378 -31T1180 -142Q1040 -200 882 -233Q736 -264 625 -264Q535 -264 500 -243Q551 -204 791
-138T1120 -71Q1134 -71 1141 -73Q1164 -80 1171 -58Q1178 -36 1155 -29Q1146 -25 1126 -25Q1010 -25 750 -99Q480 -176 448 -227Q434 -251 453 -271Q495 -313 624 -313Q744 -313 902 -278T1198 -185Q1495 -62 1495 79Q1495 189 1251 247Q1045 295 728 295Q527
295 344 324Q29 374 55 489Q64 529 175 596Q291 666 442 720Q614 781 762 794Q795 796 827 796Q1067 796 1133 638Q1136 631 1136 622Q1136 600 1118 571T1070 519Q1045 499 1034 499Q1011 498 1011 475Q1011 452 1034 452Q1060 452 1096 480T1155 543Q1183 585
1183 622Q1183 640 1176 656Q1099 843 828 843Q733 843 547 795Q345 741 201 670Q28 583 9 500Z" />
<glyph unicode="T" glyph-name="T" horiz-adv-x="447" d="M651 778Q624 778 624 797Q624 811 638 832Q513 801 305 739Q305 711 305 677Q305 398 324 221Q338 100 355 60Q390 31 390 -13Q390 -39 379 -58T352 -77Q334 -77 320 -48Q283 29 264 304Q248 527 251
723Q-137 606 -300 547Q-305 545 -310 545Q-336 545 -336 573Q-336 591 -318 597Q-149 659 253 780Q255 809 258 818Q266 839 288 835Q314 831 308 796Q703 914 793 914Q872 914 872 884Q872 853 797 816T651 778Z" />
<glyph unicode="U" glyph-name="U" horiz-adv-x="836" d="M705 1073Q606 1042 563 893Q533 788 533 641V640Q533 374 617 134Q521 41 417 -11Q325 -57 256 -57Q223 -57 203 -45Q110 14 85 151Q77 197 77 251Q77 383 122 544Q158 674 182 705Q188 713 188 722Q188
733 180 741T161 750Q151 750 143 742Q116 715 74 572Q23 401 23 254Q23 213 27 176Q49 -12 175 -91Q206 -110 256 -110Q335 -110 432 -64Q539 -14 638 78Q713 -102 813 -134Q841 -143 860 -143Q892 -143 905 -121Q911 -110 911 -98Q911 -83 902 -66T879 -49Q853
-49 853 -78Q853 -83 854 -87Q758 -80 679 124Q712 158 775 234Q906 418 906 657Q906 769 877 872Q851 964 812 1017Q770 1076 724 1076Q714 1076 705 1073ZM587 640V641Q587 750 612 858Q651 1023 729 1023Q777 1023 819 858Q853 725 853 658Q853 437 731 266Q721
251 658 181Q587 400 587 640Z" />
<glyph unicode="V" glyph-name="V" horiz-adv-x="509" d="M537 859Q508 684 445 391Q377 68 344 -26Q327 20 279 190Q199 481 153 595Q89 754 29 761Q6 764 3 740Q0 717 24 714Q87 706 234 178Q282 6 299 -40Q318 -91 339 -96Q354 -100 366 -89Q394 -60 467 270Q518
501 568 769Q569 769 570 768Q594 767 595 791Q597 864 597 857Q595 906 570 908Q545 911 537 859Z" />
<glyph unicode="W" glyph-name="W" horiz-adv-x="1121" d="M621 831Q604 820 604 798Q604 787 608 776Q616 750 644 721Q675 688 702 688Q716 688 727 698Q863 575 939 457T1015 245Q1015 138 915 88Q839 50 720 50Q502 50 355 213Q287 290 287 319Q287 434 249
471Q232 488 214 488Q177 488 177 441Q177 388 226 295Q219 158 182 14Q167 86 137 258Q101 471 85 542Q68 621 53 636Q45 644 34 644Q22 644 13 635T3 613Q3 604 8 596Q23 571 78 247Q109 67 122 4Q137 -69 149 -90Q158 -105 178 -105Q244 -105 280 212Q448 -10
720 -10Q739 -10 759 -9Q1013 7 1064 170Q1075 205 1075 244Q1075 368 972 520T680 821Q659 838 641 838Q630 838 621 831Z" />
<glyph unicode="X" glyph-name="X" horiz-adv-x="567" d="M-97 -313Q-74 -317 -74 -341Q-74 -432 -127 -432Q-147 -432 -164 -417T-181 -383Q-181 -333 -37 -96Q52 43 141 183Q162 217 193 278Q49 405 -70 501Q-85 513 -85 530Q-85 554 -58 554Q-28 554 220 333Q269
435 358 644Q379 694 399 744Q435 825 449 837Q456 842 464 842Q492 842 492 814Q492 804 486 793Q467 764 445 710Q427 666 409 622Q362 512 263 294Q608 -18 608 -59Q608 -87 581 -87Q566 -87 556 -74Q496 2 403 89Q367 124 236 240Q208 185 117 41Q62 -46 6
-134Q-57 -235 -97 -313Z" />
<glyph unicode="Y" glyph-name="Y" horiz-adv-x="600" d="M607 -547Q454 -547 316 -478Q148 -394 148 -257Q148 -181 224 -93Q263 -48 325 -2Q400 55 441 55Q468 55 468 27Q468 -1 442 -1T349 -54Q295 -97 266 -130Q203 -200 203 -257Q203 -367 358 -436Q482 -491
609 -491Q699 -491 805 -450Q935 -399 935 -325Q935 -247 791 -116Q728 -58 577 54Q484 123 418 194Q275 33 162 33Q64 33 31 146Q12 210 12 339Q12 448 48 448Q76 448 76 388Q76 367 72 331T68 290Q68 89 160 89Q254 89 382 237Q267 382 267 523Q267 600 302 673Q344
764 412 764Q488 764 528 660Q558 582 558 490Q558 378 454 238Q517 168 609 99Q777 -26 843 -87Q991 -226 991 -324Q991 -428 845 -493Q726 -547 607 -547ZM411 708Q373 708 345 633Q323 571 323 523Q323 406 417 281Q503 402 503 490Q503 553 484 619Q458 708
411 708Z" />
<glyph unicode="Z" glyph-name="Z" horiz-adv-x="619" d="M1148 1Q1045 1 782 -93Q699 -123 423 -233Q140 -346 64 -373Q-192 -464 -301 -464Q-345 -464 -376 -447Q-415 -427 -415 -389Q-415 -312 -233 -170Q-159 -113 23 6Q60 31 352 216Q552 343 677 432Q883
579 883 622Q883 657 778 657Q654 657 377 572Q92 485 -16 409Q-27 401 -38 401Q-67 401 -67 431Q-67 443 -58 452Q-42 468 60 513Q230 588 415 645Q648 716 781 716Q863 716 897 700Q946 677 942 614Q937 536 601 304Q290 99 -21 -106Q-355 -328 -355 -383Q-355
-406 -304 -406Q-234 -406 -72 -355Q29 -322 325 -204Q644 -77 790 -26Q1039 60 1147 60Q1181 60 1208 51Q1247 39 1247 13Q1247 -15 1220 -15Q1207 -15 1181 -7T1148 1Z" />
<glyph unicode="[" glyph-name="bracketleft" horiz-adv-x="465" d="M364 -4Q328 -4 312 9Q284 32 277 35Q236 54 167 54Q129 54 98 48Q84 9 59 9Q0 9 0 44Q0 74 60 92Q95 247 95 522Q95 656 79 699Q82 737 112 751Q116 753 178 768Q249 784 283 800Q289 803 295
803Q319 803 319 778Q319 764 306 756Q277 739 219 726Q152 712 130 702Q143 642 143 507Q143 261 112 101Q171 107 223 99Q301 88 334 54Q343 45 365 45Q374 45 392 47T415 49Q444 49 444 27Q444 -4 364 -4Z" />
<glyph unicode="\" glyph-name="backslash" horiz-adv-x="434" d="M224 309Q151 488 124 548Q52 704 -1 767Q-6 774 -6 782Q-6 806 18 806Q29 806 36 797Q92 730 165 572Q192 512 268 327Q378 60 403 44Q416 36 416 23Q416 -1 394 -1Q359 -1 293 143Q292 146 224 309Z" />
<glyph unicode="]" glyph-name="bracketright" horiz-adv-x="326" d="M179 31Q133 31 92 -1Q86 -6 78 -6Q55 -6 55 18Q55 29 64 36Q117 76 178 76Q212 76 263 60Q243 235 236 708Q194 704 157 704Q58 704 21 735Q0 753 0 777Q0 800 23 800Q38 800 43 788Q49 772
51 770Q82 744 161 744Q208 744 256 756Q262 757 268 757Q293 757 293 738Q293 727 282 717Q284 550 287 383Q292 189 310 49Q315 11 280 11Q265 11 233 21T179 31Z" />
<glyph unicode="^" glyph-name="asciicircum" horiz-adv-x="385" d="M342 506Q256 577 194 739Q160 668 108 595Q48 514 22 515Q14 516 7 524T-1 541Q-1 573 52 650Q95 713 127 746Q137 755 153 747Q160 768 166 789Q174 815 188 817Q204 819 215 800Q217 796
229 766Q289 605 369 539Q377 533 377 523Q377 501 355 501Q348 501 342 506Z" />
<glyph unicode="_" glyph-name="underscore" horiz-adv-x="650" d="M504 41Q244 41 208 29Q83 -12 48 -12Q3 -12 3 22Q3 55 49 55Q73 55 189 93Q235 108 505 108Q544 108 610 86Q633 78 633 54Q633 40 624 30T600 20Q589 20 556 30T504 41Z" />
<glyph unicode="`" glyph-name="grave" horiz-adv-x="319" d="M122 706Q24 706 24 747Q24 765 45 779T97 794Q155 794 205 739T255 625Q255 576 234 576Q181 576 181 624Q181 629 182 639Q182 650 182 655Q182 706 122 706Z" />
<glyph unicode="a" glyph-name="a" horiz-adv-x="523" d="M82 118Q95 106 140 106Q207 106 292 123T440 167Q445 169 450 169Q472 169 472 147Q472 114 326 85Q205 60 144 60Q37 60 37 118Q37 250 407 257Q309 276 73 276Q50 276 50 299Q50 319 73 322Q85 324
200 324Q292 324 368 312Q498 291 498 243Q498 213 394 209Q222 201 199 197Q91 179 82 118Z" />
<glyph unicode="b" glyph-name="b" horiz-adv-x="399" d="M158 -6Q158 -94 122 -94Q98 -94 82 -48Q80 -43 66 19L-66 589Q-78 643 -91 697Q-108 769 -123 802Q-126 809 -126 815Q-126 839 -103 839Q-94 839 -87 832Q-62 811 79 175Q165 179 208 179Q288 179 309
175Q364 164 383 119Q383 77 325 47Q289 29 217 12Q158 -2 158 -6ZM89 128L108 47Q150 41 232 63Q321 87 335 117Q318 131 205 131Q158 131 89 128Z" />
<glyph unicode="c" glyph-name="c" horiz-adv-x="569" d="M526 22Q496 15 366 15Q29 15 17 86Q15 95 15 105Q15 157 68 201Q108 234 185 267Q244 290 304 313Q334 326 352 326Q374 326 374 307Q374 290 293 253Q164 195 144 184Q66 141 71 107Q78 67 246 67Q267
67 298 67Q328 68 335 68Q367 68 431 69T527 71Q551 71 551 47Q551 28 526 22Z" />
<glyph unicode="d" glyph-name="d" horiz-adv-x="472" d="M317 120L307 168Q256 165 170 143Q61 115 67 88Q72 67 111 67Q156 67 240 94Q320 119 317 120ZM431 100Q407 100 407 125Q407 134 412 141Q413 161 354 165Q368 95 380 52Q391 45 399 26T407 -12Q407
-44 382 -44Q348 -44 321 80Q295 61 227 47Q166 34 125 34Q24 34 24 92Q24 144 135 182Q213 209 293 217Q268 354 207 779Q197 855 184 901Q183 905 183 910Q183 937 207 937Q216 937 224 930Q236 920 274 658Q317 368 344 217Q462 209 462 141Q462 126 454 113T431
100Z" />
<glyph unicode="e" glyph-name="e" horiz-adv-x="298" d="M247 66Q152 66 119 74Q46 90 24 148Q19 161 19 176Q19 227 65 274T158 322Q192 322 212 296T232 234Q232 146 88 137Q125 112 247 112Q269 112 269 89Q269 66 247 66ZM158 276Q128 276 98 243T65 178Q101
184 137 191Q186 202 186 234Q186 276 158 276Z" />
<glyph unicode="f" glyph-name="f" horiz-adv-x="284" d="M450 451Q450 466 469 475T489 524Q489 754 396 898Q286 1066 71 1066Q-59 1066 -59 905Q-59 839 -36 750L130 93Q172 96 188 96Q276 96 276 61Q276 36 250 36Q254 36 230 41T143 42Q156 -12 170 -67Q186
-133 186 -178Q186 -235 150 -235Q122 -235 115 -188Q112 -172 112 -122Q112 -46 91 39Q91 39 62 35Q38 32 22 32Q-27 32 -27 60Q-27 99 13 99Q26 99 51 94Q73 89 78 89Q49 203 -86 739Q-108 826 -108 901Q-108 1118 71 1118Q309 1118 433 934Q540 775 540 522Q540
476 518 449Q500 426 476 426Q450 426 450 451Z" />
<glyph unicode="g" glyph-name="g" horiz-adv-x="274" d="M210 -44Q196 6 196 65Q196 109 204 152Q220 171 220 195Q220 230 198 230Q176 230 163 177Q153 170 132 170Q108 170 85 179T58 200Q58 220 92 248T141 277Q177 278 202 253Q209 246 218 246Q241 246
241 269Q241 278 234 285Q196 323 141 323Q108 323 62 284Q12 241 12 200Q12 164 53 143Q87 126 131 126Q144 126 154 128Q150 94 150 62Q150 -10 171 -71Q19 -47 -120 -47Q-198 -47 -261 -55Q-451 -79 -506 -172Q-519 -194 -519 -217Q-519 -242 -504 -265Q-456
-343 -268 -394Q-92 -442 104 -442Q153 -442 198 -438Q490 -415 551 -270Q556 -258 556 -245Q556 -195 478 -142Q414 -98 323 -67Q238 -38 210 -44ZM497 -253Q451 -363 192 -383Q147 -387 100 -387Q-76 -387 -231 -344T-433 -241Q-444 -226 -444 -212Q-444 -179
-389 -150Q-348 -128 -306 -119Q-211 -98 -84 -98Q58 -98 193 -122Q216 -164 233 -164Q240 -164 247 -159Q259 -149 253 -133Q327 -149 340 -158Q347 -162 355 -162Q377 -162 378 -140Q415 -155 448 -178Q500 -213 500 -241Q500 -247 497 -253Z" />
<glyph unicode="h" glyph-name="h" horiz-adv-x="371" d="M382 4Q303 37 268 114Q259 137 250 160Q237 192 225 200Q204 188 151 100Q104 23 74 23Q34 23 24 122Q22 187 21 252Q15 432 15 832Q15 889 35 889Q43 889 49 881T56 863Q56 487 59 346Q61 261 72 88Q132
177 139 185Q191 252 225 252Q261 252 280 215Q299 174 317 133Q347 79 402 51Q418 43 418 28Q418 2 393 2Q388 2 382 4Z" />
<glyph unicode="i" glyph-name="i" horiz-adv-x="173" d="M74 415Q70 415 64 416T50 417Q37 417 23 437T8 470Q8 497 35 497Q54 497 75 477T96 437Q96 415 74 415ZM74 9Q32 31 32 149Q32 161 29 185T25 220Q25 245 49 245Q74 245 79 190Q80 182 80 118Q107 109
107 55Q107 9 74 9Z" />
<glyph unicode="j" glyph-name="j" horiz-adv-x="214" d="M-28 527Q-36 508 -50 508Q-66 508 -81 527T-96 567Q-96 598 -57 598Q-26 598 -8 582Q7 568 7 550Q7 524 -16 524Q-22 524 -28 527ZM-389 -598Q-389 -467 -241 -405Q-134 -360 16 -360Q60 -360 65 -361Q95
-366 95 -390Q95 -418 49 -418Q40 -418 26 -417T7 -416Q-115 -416 -204 -448Q-334 -495 -334 -597Q-334 -661 -237 -724Q-170 -768 -83 -797Q51 -842 165 -842Q394 -842 394 -650Q394 -518 297 -303Q252 -203 117 45Q20 223 20 264Q20 297 46 297Q66 297 74 272Q112
156 216 -29Q340 -249 374 -328Q449 -501 449 -651Q449 -897 167 -897Q41 -897 -101 -850Q-207 -814 -284 -759Q-389 -683 -389 -598Z" />
<glyph unicode="k" glyph-name="k" horiz-adv-x="270" d="M227 64Q197 64 96 88Q102 44 102 16Q102 -49 73 -49Q53 -49 48 -32Q46 -24 46 0Q46 7 48 55Q49 88 47 110Q27 125 27 147Q27 161 37 175Q12 339 -64 722Q-75 774 -87 826Q-102 894 -102 929Q-102 953
-79 953Q-59 953 -55 930Q-46 872 -18 731Q17 557 80 208Q178 259 186 259Q209 259 209 236Q209 219 158 193Q122 175 87 158L90 140Q100 137 122 132Q157 126 191 119Q242 108 248 102T254 88Q254 79 246 72T227 64Z" />
<glyph unicode="l" glyph-name="l" horiz-adv-x="191" d="M96 160Q96 42 100 14Q111 6 111 -12Q111 -29 103 -43T82 -57Q60 -57 52 29Q48 72 48 141Q48 248 50 462T52 783Q52 833 77 833Q97 833 101 786Q100 791 100 724Q100 630 98 442T96 160Z" />
<glyph unicode="m" glyph-name="m" horiz-adv-x="576" d="M610 -8Q544 -8 500 31Q487 43 425 122Q418 114 392 48Q373 2 348 2Q314 2 295 56Q281 106 268 156Q251 211 224 211Q192 211 154 160Q146 150 94 67Q63 17 48 17Q35 17 27 27T18 51V281Q18 307 44 307Q70
307 70 281V130Q155 264 224 264Q285 264 312 193Q328 132 344 71Q378 183 426 183Q448 183 473 147Q511 92 522 81Q559 46 610 46Q636 46 636 19Q636 -8 610 -8Z" />
<glyph unicode="n" glyph-name="n" horiz-adv-x="492" d="M531 4Q453 4 386 58Q348 88 295 158Q254 211 239 211Q171 211 123 6Q112 -40 86 -40Q60 -40 60 9Q60 54 49 122Q36 200 19 229Q13 238 13 248Q13 276 40 276Q76 276 103 131Q159 267 240 267Q279 267
331 203Q403 115 413 106Q458 70 535 60Q561 56 561 32Q561 4 531 4Z" />
<glyph unicode="o" glyph-name="o" horiz-adv-x="404" d="M12 186Q12 239 68 296T177 354Q220 354 288 300Q360 243 360 199Q360 145 303 93T190 41Q136 41 76 86Q12 133 12 186ZM180 298Q138 298 97 252Q61 212 60 186Q60 156 109 122Q155 90 190 90Q226 90 268
127T310 198Q310 227 260 262T180 298Z" />
<glyph unicode="p" glyph-name="p" horiz-adv-x="402" d="M388 195Q388 259 173 301Q23 330 -45 330Q-71 330 -71 304Q-71 277 -45 277Q14 277 153 250Q304 220 331 195Q318 183 255 172Q207 165 160 159L90 148Q90 157 90 159Q90 186 63 186Q37 186 37 159Q37
107 82 -136Q134 -420 176 -462Q195 -481 213 -462Q232 -444 213 -425Q188 -400 148 -205Q117 -50 97 96L166 106Q289 124 318 133Q388 153 388 195Z" />
<glyph unicode="q" glyph-name="q" horiz-adv-x="427" d="M585 -467Q397 -467 280 -383Q147 -288 147 -107Q147 -79 151 -50Q103 -49 13 -39Q-14 -33 -14 -12Q-14 15 15 15Q37 15 159 4Q177 82 212 135Q190 136 149 133T86 130Q-23 130 -23 186Q-23 246 59 292Q131
333 196 333Q240 333 307 314Q391 291 391 261Q391 238 364 238Q336 238 280 258T195 279Q155 279 95 250T34 200Q34 184 81 184Q108 184 162 188T243 192Q296 192 296 162Q296 148 277 128Q235 87 213 0Q405 -22 561 -67Q775 -129 871 -224Q927 -279 927 -324Q927
-396 795 -436Q694 -467 585 -467ZM204 -54Q201 -81 201 -106Q201 -264 319 -344Q421 -413 585 -413Q676 -413 752 -398Q867 -374 867 -323Q867 -292 822 -251Q734 -172 529 -115Q377 -73 204 -54Z" />
<glyph unicode="r" glyph-name="r" horiz-adv-x="354" d="M107 132Q116 93 116 72Q116 31 87 31Q54 31 54 90Q54 117 60 136Q42 198 24 220Q18 227 18 236Q18 258 40 258Q61 258 89 189Q153 266 293 296Q304 298 312 292T320 275Q320 258 303 253Q229 233 191
213Q129 181 107 132Z" />
<glyph unicode="s" glyph-name="s" horiz-adv-x="601" d="M364 -84Q391 -84 444 -57Q502 -28 502 -3Q502 0 500 3Q437 66 305 92Q204 108 103 124Q9 145 9 201Q9 272 153 306Q250 329 354 329Q415 329 478 316Q572 297 572 259Q572 234 548 234Q537 234 529 241Q484
278 356 278Q251 278 157 254Q60 231 60 202Q60 182 119 171Q131 169 192 162Q310 149 376 129Q478 99 536 39Q555 20 555 -2Q555 -49 482 -93Q415 -134 361 -134Q327 -134 299 -119Q265 -101 265 -70Q265 -53 276 -32T304 -10Q327 -10 327 -24Q327 -29 323 -42T319
-61Q319 -84 364 -84Z" />
<glyph unicode="t" glyph-name="t" horiz-adv-x="281" d="M367 270H304Q224 269 193 269Q186 355 169 531Q147 765 147 822Q147 843 149 850Q157 874 135 884Q113 893 103 873Q96 858 96 818Q96 759 118 526Q135 354 141 269Q39 270 -27 272Q-151 277 -170 288Q-173
290 -190 290Q-199 290 -206 284T-210 268Q-203 246 -177 235Q-176 234 -109 228Q7 218 145 218Q154 70 145 10Q142 -15 167 -19Q193 -22 196 3Q205 67 196 218Q209 218 304 218L367 219Q393 219 392 244Q392 270 367 270Z" />
<glyph unicode="u" glyph-name="u" horiz-adv-x="573" d="M365 101Q319 9 195 9Q99 9 45 62T-10 211Q-10 248 0 287Q14 343 40 343Q65 343 65 314Q65 296 56 262T47 210Q47 66 195 66Q270 66 302 105Q317 124 331 179Q341 218 364 218Q387 218 393 189Q407 121
452 85Q475 67 529 45Q567 29 567 11Q567 -3 557 -11T532 -17Q425 8 365 101Z" />
<glyph unicode="v" glyph-name="v" horiz-adv-x="371" d="M196 -9Q138 -9 84 65Q46 117 19 191Q3 233 3 258Q3 287 21 287Q46 287 51 261Q63 204 103 131Q152 43 196 43Q214 43 220 65Q220 66 223 103Q229 169 244 205Q265 255 311 284Q318 289 325 289Q351 289
351 263Q351 251 340 241Q297 206 285 168Q279 150 277 100Q275 56 260 27Q242 -9 196 -9Z" />
<glyph unicode="w" glyph-name="w" horiz-adv-x="604" d="M459 53Q402 53 339 84Q285 114 231 145Q224 111 217 77Q203 36 170 36Q154 36 136 46Q32 102 32 264Q32 293 33 300Q38 321 57 321Q76 321 80 299Q80 299 80 264Q80 132 168 85Q175 119 182 154Q195 199
222 199Q239 199 319 151T459 102Q517 102 517 127Q517 161 466 225T415 296Q415 321 439 321Q448 321 456 313Q495 275 526 227Q565 167 565 126Q565 53 459 53Z" />
<glyph unicode="x" glyph-name="x" horiz-adv-x="483" d="M290 115Q222 -2 196 -2Q169 -2 169 25Q169 36 177 45Q203 74 242 141Q46 249 19 279Q11 288 11 298Q11 326 38 326Q48 326 58 318Q95 285 269 189Q336 308 350 308Q378 308 378 279Q378 264 354 223Q335
193 317 163Q391 124 451 100Q470 93 470 74Q470 47 443 47Q420 47 290 115Z" />
<glyph unicode="y" glyph-name="y" horiz-adv-x="318" d="M299 -516Q176 -516 80 -439Q-23 -356 -23 -236Q-23 -165 46 -102T187 -39Q206 -39 218 -48T231 -68Q231 -92 187 -92Q138 -92 84 -139T29 -236Q29 -334 117 -401Q198 -464 300 -464Q377 -464 424 -406Q468
-352 468 -273Q468 -188 357 -48Q271 52 184 151Q136 120 81 120Q-4 120 -4 229Q-4 283 25 283Q50 283 50 252Q50 245 49 234T48 218Q48 171 89 171Q121 171 156 195Q151 207 151 219Q151 255 189 255Q227 255 227 215Q227 202 222 189Q314 82 406 -26Q520 -171
520 -273Q520 -374 461 -443Q399 -516 299 -516Z" />
<glyph unicode="z" glyph-name="z" horiz-adv-x="269" d="M307 -581Q195 -581 42 -510Q-135 -428 -135 -331Q-135 -242 7 -188Q117 -145 219 -145Q244 -145 244 -171Q244 -196 219 -196Q141 -196 41 -230Q-84 -271 -84 -331Q-84 -368 -9 -420Q44 -456 102 -481Q218
-531 303 -531Q455 -531 455 -367Q455 -205 338 -80Q231 34 68 78Q24 90 24 112Q24 143 113 153Q72 168 35 168Q10 168 10 194Q10 219 35 219Q77 219 127 201Q191 177 191 142Q191 117 148 106Q279 59 364 -31Q426 -97 466 -186Q507 -280 507 -366Q507 -581 307
-581Z" />
<glyph unicode="{" glyph-name="braceleft" horiz-adv-x="334" d="M239 760Q188 760 148 729T95 648Q116 632 154 631Q200 630 210 627Q238 617 248 578Q253 558 214 528Q184 507 154 486Q225 477 225 444Q225 436 223 427Q212 383 164 332Q124 289 84 246Q43
193 43 140Q43 80 68 60Q90 42 152 42Q173 42 173 21Q173 0 152 0Q72 0 38 30Q0 63 0 140Q0 201 40 253Q81 295 121 337Q169 388 181 440Q157 444 132 448Q102 455 102 478Q102 497 144 532Q174 556 204 580Q158 588 113 596Q53 611 53 649Q53 711 117 758Q176
802 240 802Q318 802 318 776Q318 756 285 756Q275 756 259 758T239 760Z" />
<glyph unicode="|" glyph-name="bar" horiz-adv-x="91" d="M34 536Q10 536 10 566Q10 575 13 593T17 618Q17 646 9 701T0 783Q0 800 23 800Q42 800 46 784Q63 718 63 602Q63 536 34 536ZM80 81Q80 71 82 50T85 17Q85 -1 62 -1Q33 -1 33 57Q33 103 38 193T44 328Q44
386 30 405Q25 413 25 421Q25 439 47 439Q91 439 91 327Q91 286 86 204T80 81Z" />
<glyph unicode="}" glyph-name="braceright" horiz-adv-x="384" d="M178 38Q235 60 280 126T325 253Q325 298 260 360Q243 376 139 458Q75 509 75 530Q75 542 96 563Q50 564 50 590Q50 621 107 670Q171 725 180 752Q162 760 130 762Q109 763 73 761Q28 759 20
759Q0 759 0 778Q0 797 21 799Q59 804 95 804Q222 804 222 751Q222 719 174 674Q138 642 101 610Q126 614 132 614Q158 614 158 592Q158 577 144 558Q132 544 120 530Q142 505 215 450T318 360Q366 306 366 253Q366 187 308 97Q245 -1 184 -1Q164 -1 164 19Q164
32 178 38Z" />
<glyph unicode="~" glyph-name="asciitilde" horiz-adv-x="442" d="M29 680Q20 663 36 654Q50 647 67 668Q95 703 110 714Q147 741 200 741Q236 741 261 695Q270 679 275 671Q285 659 297 654T325 649Q374 649 403 678Q416 691 416 703Q416 713 409 720T388 728Q371
728 357 714Q354 705 351 697Q347 683 334 683Q325 683 312 689Q306 691 294 713Q259 779 200 779Q83 779 29 680Z" />
</font>
</defs>
</svg>
